Niu Niu - Liszt · Chopin ‧ Schubert ‧ Mendelssohn (2018) [Official Digital Download 24/96]

Posted By: SERTiL
Niu Niu - Liszt · Chopin ‧ Schubert ‧ Mendelssohn (2018) [Official Digital Download 24/96]

Niu Niu - Liszt · Chopin ‧ Schubert ‧ Mendelssohn (2018)
FLAC (tracks) 24-bit/96 kHz | Time - 63:23 minutes | 1.08 GB
Studio Master, Official Digital Download | Artwork: Front Cover

With the tender age of 10 Niu Niu is the only pianist who became the youngest pianist ever to sign an exclusive recording contract with an international classical label – EMI Classics now Warner Classics.

Niu Niu is the nickname and performing identity of Shengliang Zhang, born into a musical family in Xiamen, Fujian province, China in 1997.

Tracklist:
1. Rondo capriccioso, Op.14 06:58
2. Impromptu No.2 in F sharp, Op.36 05:46
3. Impromptu No.3 in G flat, Op.51 05:36
4. Lento assai - Allegro energico 12:55
5. Andante sostenuto 08:12
6. Allegro energico - Andante sostenuto - Lento assai 11:24
7. Impromptu In G Flat, D899, No. 3 05:37
8. Soirées De Vienne, Valse-Caprice No.6, S-427/6 07:34

Personnel:
Niu Niu, piano

foobar2000 1.3.7 / Dynamic Range Meter 1.1.1
log date: 2018-07-03 18:55:27

––––––––––––––––––––––––––––––––––––––––
Analyzed: Niu Niu / Liszt · Chopin ‧ Schubert ‧ Mendelssohn
––––––––––––––––––––––––––––––––––––––––

DR Peak RMS Duration Track
––––––––––––––––––––––––––––––––––––––––
DR14 -1.20 dB -20.48 dB 6:53 01-Rondo capriccioso, Op.14
DR15 -2.21 dB -23.42 dB 5:41 02-Impromptu No.2 in F sharp, Op.36
DR13 -3.83 dB -22.15 dB 5:34 03-Impromptu No.3 in G flat, Op.51
DR12 -1.20 dB -17.98 dB 12:55 04-Lento assai - Allegro energico
DR14 -1.20 dB -22.34 dB 8:08 05-Andante sostenuto
DR11 -1.20 dB -17.82 dB 11:14 06-Allegro energico - Andante sostenuto - Lento assai
DR13 -5.36 dB -25.65 dB 5:34 07-Impromptu In G Flat, D899, No. 3
DR14 -1.20 dB -21.07 dB 7:28 08-Soirees De Vienne, Valse-Caprice No.6, S-427/6
––––––––––––––––––––––––––––––––––––––––

Number of tracks: 8
Official DR value: DR13

Samplerate: 96000 Hz
Channels: 2
Bits per sample: 24
Bitrate: 2454 kbps
Codec: FLAC
================================================================================


Thanks to the Original customer.
SitemapWECO Knallkorken Packung Inhalt 20 Stück *SELTENE VARIANTE* | 26. sezon 6. Bölüm | Baixar Filme